[UMAX HEVC 4K] MCD A Pink, Orange Caramel, Rainbow, AOA, BESTie, Ladies’ Code 16

Reply →

_

Orange caramel catallena UMAX 4k

A pink UMAX 4k

UMAX 4k Rainbow

AOA UMAX 4k

BESTIE UMAX 4k

UMAX 4k HEVC demo

Caps
[HEVC.4K] UMAX MCDGIRL 오렌지캬라멜, 에이핑크.TS

HEVC.4K] UMAX MCDGIRL 레인보우, AOA, 베스티, 레이디스코드.TS

Media Info
Format : MPEG-TS
File size : 5.34 GiB
Duration : 19mn 41s
Start time : UTC 2015-02-07 06:03:23
End time : UTC 2015-02-07 06:23:04
Overall bit rate mode : Constant
Overall bit rate : 38.8 Mbps

Video
ID : 416 (0x1A0)
Menu ID : 426 (0x1AA)
Format : HEVC
Format/Info : High Efficiency Video Coding
Format profile : Main [email protected]@Main
Codec ID : 36
Duration : 19mn 42s
Bit rate : 36.5 Mbps
Width : 3 840 pixels
Height : 2 160 pixels
Display aspect ratio : 16:9
Frame rate : 60.000 fps
Color space : YUV
Chroma subsampling : 4:2:0
Bit depth : 10 bits
Bits/(Pixel*Frame) : 0.073
Stream size : 5.02 GiB (94%)
Writing library : ATEME Titan KFE 3.5.1 (4.5.1.6)
Language : Korean
Encryption : Encrypted

Audio
ID : 417 (0x1A1)
Menu ID : 426 (0x1AA)
Format : AC-3
Format/Info : Audio Coding 3
Mode extension : CM (complete main)
Format settings, Endianness : Big
Codec ID : 129
Duration : 19mn 41s
Bit rate mode : Constant
Bit rate : 384 Kbps
Channel(s) : 2 channels
Channel positions : Front: L R
Sampling rate : 48.0 KHz
Compression mode : Lossy
Delay relative to video : -768ms
Stream size : 54.1 MiB (1%)
Language : Korean
Encryption : Encrypted

Orange Caramel + A pink

Rainbow Blaxx + AOA + BESTIE + Ladies’ Code

Links From : 1 2

GD Star Rating
loading...
Author:

Morning Musume – The☆Peace! [Requested]

Reply →

_

Group: Morning Musume
Song:  The☆Peace!
Release Date: 2001, July 25
Language: Japanese
Subtitles: –
Size: 1,43 GB
Duration: 00:05:35
Quality: Blu-ray Remux

DOWNLOAD

GD Star Rating
loading...
Author:

AKB48 Team Surprise M03 – そのままで (Sono Mama De) [1080p HD]

Reply →

_

Performed by Itano Tomomi, Yokoyama Yui, Takajo Aki

Team Surprise [M3] 2

 

(more…)

GD Star Rating
loading...
Author:

Itano Tomomi – 1% (Music Dragon 2013.06.16)

Reply →

_

thumbs20150519044617

Enjoy

[MEGA]

GD Star Rating
loading...
Author:

Itano Tomomi – 1% (Music Japan 2013.06.13)

Reply →

_

thumbs20150519044750

Enjoy
[MEGA]

GD Star Rating
loading...
Author:

Itano Tomomi – 10nen go no Kimi he @KAYOU-KYOKU [2012.05.08 ]

Reply →

_

thumbs20150519044005

ENJOY
[MEGA]

GD Star Rating
loading...
Author:

Tomomi Itano – 10nen go no Kimi e @Ichiban Song [25.04.2012]

Reply →

_

thumbs20150519044030

ENJOY
[MEGA]

GD Star Rating
loading...
Author:

Itano Tomomi – 10 nen go no Kimi e [H.264 1440×1080 M-ON! HD]

Reply →

_

10nengo no Kimi e (10年後の君へ)
This is the album I LOVE the most from Tomochin.

thumbs2015051903523

Enjoy
[MEGA]

 

GD Star Rating
loading...
Author:

Mushi no Ballad ( AKB48 members version )

Reply →

_

Mushi no Ballad
It’s a really good song, and has been covered by many AKB48 members.
I honestly think Tomochin’s version is good this time ^^ #ups


I only managed to get Tomochin’s version
[MEGA]

And this is Takamina’s  version… ahh.. I love it ! ^^

Other’s also really amazing singing this song, but this two really have their own character in this song #ithink

(more…)

GD Star Rating
loading...
Author:

Itano Tomomi – Stay by My Side + Interview + Fuini @Girls’ Factory

Reply →

_

thumbs20150519042705

Enjoy
[MEGA]

 

GD Star Rating
loading...
Author:

LIVEs: 150522 KBS Music Bank – BESTie, Dalshabet, EXID

Reply →

_

BESTie – Excuse Me (150522 KBS Music Bank)

Dalshabet – Joker (150522 KBS Music Bank)

EXID – Ah Yeah (150522 KBS Music Bank)

GD Star Rating
loading...
Author: